THE TWILIGHT SAGA - BREAKING DAWN PART 1 (2011) BRRip [MKV DTS HD...

  • Category Movies
  • Type HD
  • Language English
  • Total size 5.6 GB
  • Uploaded By robmead
  • Downloads 555
  • Last checked 3 hours ago
  • Date uploaded 6 years ago
  • Seeders 0
  • Leechers 0

Infohash : 48FEFDF3F250B83CE61CF44759577B8984718D7D

IMDb: http://www.imdb.com/title/tt1324999/






The Quileutes close in on expecting parents Edward and Bella, whose unborn child poses a threat to the Wolf Pack and the towns people of Forks.



Director: Bill Condon
Writers: Melissa Rosenberg (screenplay), Stephenie Meyer (novel)
Stars: Kristen Stewart, Robert Pattinson and Taylor Lautner



--------------------
[File Info]
--------------------
THE TWILIGHT SAGA - BREAKING DAWN PART 1 (2011) 1080p BRRip [MKV DTS HD-MA][RoB]PR3DATOR RG

General

Unique ID : 236564438227283147562346717257336381692 (0xB1F8A74E2112F348B2302CCAB37060FC)
Complete name : THE TWILIGHT SAGA - BREAKING DAWN PART 1 [MKV DTS HD-MA][RoB]PR3DATOR RG
Format : Matroska
File size : 5.60 GiB
Duration : 1h 57mn
Overall bit rate : 6 842 Kbps
Encoded date : UTC 2012-01-26 21:04:00
Writing application : the Quill
Writing library : libebml v0.7.8 + libmatroska v0.8.1

Video #1

ID : 1
Format : AVC
Format/Info : Advanced Video Codec
Format profile : [email protected]
Format settings, CABAC : Yes
Format settings, ReFrames : 2 frames
Codec ID : V_MPEG4/ISO/AVC
Duration : 1h 57mn
Bit rate : 5 196 Kbps
Width : 1 920 pixels
Height : 800 pixels
Display aspect ratio : 2.40:1
Frame rate : 23.976 fps
Color space : YUV
Chroma subsampling : 4:2:0
Bit depth : 8 bits
Scan type : Progressive
Bits/(Pixel*Frame) : 0.141
Stream size : 4.25 GiB (76%)
Writing library : x264 core
Color primaries : BT.709-5, BT.1361, IEC 61966-2-4, SMPTE RP177
Transfer characteristics : BT.709-5, BT.1361
Matrix coefficients : BT.709-5, BT.1361, IEC 61966-2-4 709, SMPTE RP177

Audio #2

ID : 2
Format : DTS
Format/Info : Digital Theater Systems
Format profile : ES
Codec ID : A_DTS
Duration : 1h 57mn
Bit rate mode : Constant
Bit rate : 1 510 Kbps
Channel(s) : 6 channels
Channel positions : Front: L C R, Side: L R, LFE
Sampling rate : 48.0 KHz
Bit depth : 24 bits
Compression mode : Lossy
Stream size : 1.24 GiB (22%)













ALWAYS LOOKiNG for SCREENERS,CAM,SiLVERS,LiNE,PRERETAiL BD/DVD. ANY REGiON 
If you'd like to help, feel free to contact us at: [email protected] 

Files:

  • THE TWILIGHT SAGA - BREAKING DAWN PART 1 [MKV DTS HD-MA][RoB]PR3DATOR RG.mkv (5.6 GB)
  • Torrent downloaded from AhaShare.com.txt (0.1 KB)
  • Torrent downloaded from Demonoid.me.txt (0.0 KB)
  • Torrent downloaded from Silvertorrents.me.txt (0.0 KB)

There are currently no comments. Feel free to leave one :)

Code:

  • http://inferno.demonoid.me:3416/announce
  • udp://tracker.1337x.org:80/announce
  • http://tracker.publicbt.com/announce
  • http://tracker.torrent.to:2710/announce
  • udp://tracker.openbittorrent.com:80/announce
  • udp://tracker.publicbt.com:80/announce
  • http://10.rarbg.com/announce
  • http://pow7.com/announce
  • http://solotorrents.com/announce.php
  • http://exodus.desync.com:6969/announce
  • udp://exodus.desync.com:6969
SitemapDownload | Asiaticas | Spezielle Fahrzeug-Teile (1)